Mowgli (2018) 720p NF WEB-DL Dual Audio ORG [Hindi DDP5.1 + Engli...

seeders: 0
leechers: 0
updated:
Added by Saransh in Other


# LIMITED VPN OFFER #
strongly advises you to use NordVPN while downloading torrents.
NordVPN is the safest VPN on the market, and the fastest VPN as well.
No IP Log is saved using NordVPN, avoid other VPN providers and choose the safest one.
Click here and buy NordVPN it's on rebates today!
We were able to verify your IP: 146.185.202.60, country: Russian Federation and you are near by: Saint Petersburg.
If we can do that, others can too, protect your privacy with NordVPN.
is trying the best for you!
# LIMITED VPN OFFER #


Description

Mowgli (2018) 720p WEB-DL Dual Audio ORG [Hindi DDP5.1 + English DD5.1] MSubs [Telegram @Movieznm]  
 
Media Info:
Format                      : Matroska
Format version              : Version 4
File size                   : 1.54 GiB
Duration                    : 1 h 44 min
Overall bit rate            : 2 096 kb/s
Movie name                  : Mowgli (2018) 720p WEB-DL Dual Audio ORG [Hindi DDP5.1 + English DD5.1] MSubs ~ Saransh
Encoded date                : UTC 2018-12-07 13:01:36
Writing application         : mkvmerge v27.0.0 ('Metropolis') 64-bit
Writing library             : libebml v1.3.6 + libmatroska v1.4.9

Video
ID                          : 1
Format                      : AVC
Format/Info                 : Advanced Video Codec
Format profile              : [email protected] 
Format settings             : CABAC / 4 Ref Frames
Format settings, CABAC      : Yes
Format settings, ReFrames   : 4 frames
Codec ID                    : V_MPEG4/ISO/AVC
Duration                    : 1 h 44 min
Bit rate                    : 1 088 kb/s
Width                       : 1 280 pixels
Height                      : 536 pixels
Display aspect ratio        : 2.40:1
Frame rate mode             : Constant
Frame rate                  : 23.976 (24000/1001) FPS
Color space                 : YUV
Chroma subsampling          : 4:2:0
Bit depth                   : 8 bits
Scan type                   : Progressive
Bits/(Pixel*Frame)          : 0.066
Stream size                 : 802 MiB (51%)
Title                       : Mowgli (2018) 720p WEB-DL Dual Audio ORG [Hindi DDP5.1 + English DD5.1] MSubs ~ Saransh
Language                    : English
Default                     : Yes
Forced                      : No
Color range                 : Limited
Color primaries             : BT.709
Transfer characteristics    : BT.709
Matrix coefficients         : BT.709

Audio #1
ID                          : 2
Format                      : E-AC-3
Format/Info                 : Enhanced AC-3
Commercial name             : Dolby Digital Plus
Codec ID                    : A_EAC3
Duration                    : 1 h 44 min
Bit rate mode               : Constant
Bit rate                    : 640 kb/s
Channel(s)                  : 6 channels
Channel layout              : L R C LFE Ls Rs
Sampling rate               : 48.0 kHz
Frame rate                  : 31.250 FPS (1536 SPF)
Compression mode            : Lossy
Delay relative to video     : -21 ms
Stream size                 : 480 MiB (31%)
Title                       : Hindi DDP5.1 - t.me/Movieznm
Language                    : Hindi
Service kind                : Complete Main
Default                     : Yes
Forced                      : Yes

Audio #2
ID                          : 3
Format                      : AC-3
Format/Info                 : Audio Coding 3
Commercial name             : Dolby Digital
Codec ID                    : A_AC3
Duration                    : 1 h 44 min
Bit rate mode               : Constant
Bit rate                    : 384 kb/s
Channel(s)                  : 6 channels
Channel layout              : L R C LFE Ls Rs
Sampling rate               : 48.0 kHz
Frame rate                  : 31.250 FPS (1536 SPF)
Bit depth                   : 16 bits
Compression mode            : Lossy
Delay relative to video     : -21 ms
Stream size                 : 288 MiB (18%)
Title                       : ENG DD5.1 - t.me/Movieznm
Language                    : English
Service kind                : Complete Main
Default                     : No
Forced                      : No

Text #1
ID                          : 4
Format                      : UTF-8
Codec ID                    : S_TEXT/UTF8
Codec ID/Info               : UTF-8 Plain Text
Duration                    : 1 h 34 min
Bit rate                    : 24 b/s
Count of elements           : 706
Stream size                 : 17.1 KiB (0%)
Title                       : ESubs - t.me/Movieznm
Language                    : English
Default                     : Yes
Forced                      : Yes

Text #2
ID                          : 5
Format                      : UTF-8
Codec ID                    : S_TEXT/UTF8
Codec ID/Info               : UTF-8 Plain Text
Duration                    : 1 h 35 min
Bit rate                    : 61 b/s
Count of elements           : 690
Stream size                 : 43.2 KiB (0%)
Title                       : HSubs - t.me/Movieznm
Language                    : Hindi
Default                     : No
Forced                      : No  
SCREENS  
 

Sharing Widget


Download torrent
Size: 1.5 GB
seeders:0
leechers:0
Mowgli (2018) 720p NF WEB-DL Dual Audio ORG [Hindi DDP5.1 + Engli... - (1610612736 Bytes)



To share this torrent use the code below and insert it into comments, status messages, forum posts or your signature.

Torrent: Mowgli (2018) 720p NF WEB-DL Dual Audio ORG [Hindi DDP5.1 + Engli...

Trackers

tracker name
udp://tracker.openbittorrent.com:80/announce
udp://tracker.opentrackr.org:1337/announce
udp://tracker.zer0day.to:1337/announce
udp://tracker.leechers-paradise.org:6969/announce
udp://coppersurfer.tk:6969/announce
ĀµTorrent compatible trackers list

Locations

name
KickassTorrents
Torrent hash: 6677AACC57008262F25F2399DA3DB2B088562307

# LIMITED VPN OFFER #
strongly advises you to use NordVPN while downloading torrents.
NordVPN is the safest VPN on the market, and the fastest VPN as well.
No IP Log is saved using NordVPN, avoid other VPN providers and choose the safest one.
Click here and buy NordVPN it's on rebates today!
We were able to verify your IP: 146.185.202.60, country: Russian Federation and you are near by: Saint Petersburg.
If we can do that, others can too, protect your privacy with NordVPN.
is trying the best for you!
# LIMITED VPN OFFER #


All Comments

*comments box temporarily disabled*
Report a bug